<?xml version="1.0" standalone="no"?>
<!DOCTYPE svg PUBLIC "-//W3C//DTD SVG 1.1//EN" "http://www.w3.org/Graphics/SVG/1.1/DTD/svg11.dtd" >
<svg xmlns="http://www.w3.org/2000/svg" xmlns:xlink="http://www.w3.org/1999/xlink" version="1.1">
<metadata>
Created by FontForge 20170731 at Tue Aug 23 20:31:58 2005
 By Aleksey,,,
Copyright (c) 1991 Adobe Systems Incorporated.  All Rights Reserved.
</metadata>
<defs>
<font id="SackersGothicLightAT" horiz-adv-x="685" >
  <font-face 
    font-family="Sackers Gothic Light AT"
    font-weight="400"
    font-stretch="normal"
    units-per-em="1000"
    panose-1="2 0 5 5 2 0 0 2 0 3"
    ascent="800"
    descent="-200"
    x-height="518"
    cap-height="750"
    bbox="-175 -248 1326 1040"
    underline-thickness="50"
    underline-position="-200"
    unicode-range="U+0020-FB06"
  />
<missing-glyph horiz-adv-x="370" 
 />
    <glyph glyph-name=".notdef" horiz-adv-x="370" 
 />
    <glyph glyph-name=".null" horiz-adv-x="0" 
 />
    <glyph glyph-name="nonmarkingreturn" horiz-adv-x="333" 
 />
    <glyph glyph-name="space" unicode=" " horiz-adv-x="370" 
 />
    <glyph glyph-name="exclam" unicode="!" horiz-adv-x="333" 
d="M211 750l-18 -571h-54l-18 571h90zM229 47q0 -26 -18.5 -44.5t-44.5 -18.5t-44.5 18.5t-18.5 44.5t18.5 44.5t44.5 18.5t44.5 -19t18.5 -44z" />
    <glyph glyph-name="numbersign" unicode="#" horiz-adv-x="815" 
d="M570 216l-34 -217h-60l34 217h-229l-34 -217h-60l34 217h-185l8 55h185l23 146h-184l9 55h184l29 180h60l-29 -180h229l29 180h60l-29 -180h186l-9 -55h-186l-23 -146h185l-8 -55h-185zM518 271l23 146h-229l-23 -146h229z" />
    <glyph glyph-name="dollar" unicode="$" horiz-adv-x="889" 
d="M489 600v-224q20 0 35.5 -0.5t50 -4t61 -10.5t59 -21t54 -34t36.5 -51.5t15 -71.5q0 -49 -26 -87t-62.5 -58.5t-83 -33.5t-79.5 -16.5t-60 -3.5v-67h-54v67q-117 5 -189 33.5t-157 101.5l46 49q64 -58 134 -86.5t166 -29.5v256q-32 0 -50.5 0.5t-53.5 3.5t-57 8.5
t-50 17.5t-44 29t-27.5 43t-11.5 60q0 52 30 92.5t76.5 62t94.5 32.5t93 11v82h54v-82q58 0 132 -23.5t140 -69.5l-43 -54q-37 30 -108.5 53t-120.5 26zM489 308v-256q21 0 53 5t76.5 17.5t75 42.5t30.5 72q0 27 -10 47.5t-30 33t-41 21t-51 12t-52 4.5t-51 1zM435 376v224
q-28 0 -61 -5.5t-70.5 -18.5t-62 -40t-24.5 -64q0 -31 15.5 -51.5t48 -29.5t67 -12t87.5 -3z" />
    <glyph glyph-name="ampersand" unicode="&#x26;" horiz-adv-x="870" 
d="M672 115l118 -115h-96l-74 70q-113 -86 -254 -86q-127 0 -207 61.5t-80 147.5q0 46 20 82.5t54 59.5t65 37t66 23q-2 3 -19 21t-26.5 30t-19 33t-9.5 41q0 56 59 102t159 46q93 0 200 -52l-29 -61q-37 17 -53.5 24t-51 14t-73.5 7q-53 0 -98 -21.5t-45 -54.5q0 -13 9 -28
t15.5 -22t22.5 -22l296 -288q49 44 100 128l58 -37q-50 -84 -107 -140zM569 120l-229 219q-193 -46 -193 -143q0 -68 65 -106t155 -38q51 0 95 13t61.5 23.5t45.5 31.5z" />
    <glyph glyph-name="quoteright" unicode="'" horiz-adv-x="389" 
d="M268 662q0 -31 -11.5 -59.5t-28 -47.5t-34 -33.5t-30.5 -21.5t-17 -7q-8 0 -8 10q0 3 13.5 14t30.5 24.5t30.5 37t13.5 48.5q0 10 -12.5 12.5t-30.5 4t-27 6.5q-19 12 -27.5 24t-8.5 37t18.5 40t44.5 15q31 0 57.5 -29t26.5 -75z" />
    <glyph glyph-name="quoteright" unicode="&#x2019;" horiz-adv-x="389" 
d="M268 662q0 -31 -11.5 -59.5t-28 -47.5t-34 -33.5t-30.5 -21.5t-17 -7q-8 0 -8 10q0 3 13.5 14t30.5 24.5t30.5 37t13.5 48.5q0 10 -12.5 12.5t-30.5 4t-27 6.5q-19 12 -27.5 24t-8.5 37t18.5 40t44.5 15q31 0 57.5 -29t26.5 -75z" />
    <glyph glyph-name="parenleft" unicode="(" horiz-adv-x="426" 
d="M327 -10q0 -6 -7 -6q-5 0 -27.5 17.5t-55.5 53.5t-64 81t-53 109t-22 129q0 66 22 130t52.5 109.5t63.5 81.5t56 53.5t28 17.5q7 0 7 -6q0 -4 -15 -22t-37 -49.5t-43.5 -73.5t-36.5 -106t-15 -135q0 -70 15 -134t37 -105.5t43.5 -73t36.5 -49.5t15 -22z" />
    <glyph glyph-name="parenright" unicode=")" horiz-adv-x="426" 
d="M327 374q0 -65 -22 -129t-53 -109t-64 -81t-55.5 -53.5t-27.5 -17.5q-7 0 -7 6q0 4 15 22t37 49.5t43.5 73t36.5 105.5t15 134q0 71 -15 135t-37 106t-43.5 73.5t-36.5 49.5t-15 22q0 6 7 6q5 0 28 -17.5t56 -53.5t63.5 -81.5t52.5 -109.5t22 -130z" />
    <glyph glyph-name="asterisk" unicode="*" horiz-adv-x="593" 
d="M425 434l-67 -36l-61 136l-57 -136l-70 36l98 121l-152 -18v74l152 -20l-98 118l70 41l58 -139l60 139l67 -41l-95 -118l147 20v-75l-147 19z" />
    <glyph glyph-name="comma" unicode="," horiz-adv-x="389" 
d="M299 6q0 -31 -11.5 -59.5t-28 -47.5t-34 -33.5t-30.5 -21.5t-17 -7q-8 0 -8 10q0 3 14 14t30 24.5t30 37t14 48.5q0 10 -12.5 12.5t-30.5 4t-27 6.5q-19 12 -27.5 24t-8.5 37t18.5 40t44.5 15q31 0 57.5 -29t26.5 -75z" />
    <glyph glyph-name="hyphen" unicode="-" horiz-adv-x="333" 
d="M305 286v-58h-278v58h278z" />
    <glyph glyph-name="period" unicode="." horiz-adv-x="370" 
d="M248 47q0 -25 -19 -44t-44 -19t-44 19t-19 44t19 44t44 19t44 -19t19 -44z" />
    <glyph glyph-name="slash" unicode="/" horiz-adv-x="630" 
d="M559 750l-433 -750h-68l433 750h68z" />
    <glyph glyph-name="zero" unicode="0" horiz-adv-x="889" 
d="M831 326q0 -148 -109 -245t-278 -97t-278 97t-109 245t109 245t278 97t278 -97t109 -245zM444 52q152 0 235.5 78.5t83.5 195.5t-83.5 195.5t-235.5 78.5t-235.5 -78.5t-83.5 -195.5t83.5 -195.5t235.5 -78.5z" />
    <glyph glyph-name="one" unicode="1" horiz-adv-x="593" 
d="M330 652v-652h-68v652h68z" />
    <glyph glyph-name="two" unicode="2" horiz-adv-x="889" 
d="M744 68v-68h-599q0 164 70.5 259t196.5 108l153 15q53 5 81.5 32t28.5 60q0 65 -62 95.5t-152 30.5q-27 0 -53 -2.5t-45 -5.5t-41 -9.5t-34 -10t-30.5 -12.5t-24 -11.5t-21.5 -12t-17 -9.5l-32 60q46 25 79 39.5t92.5 28t126.5 13.5q121 0 201.5 -50t80.5 -144
q0 -72 -58.5 -116.5t-132.5 -48.5l-120 -8q-55 -4 -99.5 -30.5t-69.5 -63t-37.5 -73t-12.5 -66.5h531z" />
    <glyph glyph-name="three" unicode="3" horiz-adv-x="889" 
d="M204 535l-31 60q144 73 278 73q70 0 134.5 -16.5t114 -59t49.5 -103.5q0 -87 -91 -141q135 -57 135 -163q0 -58 -35.5 -99.5t-94 -62.5t-117 -30t-120.5 -9q-55 0 -106 8t-80.5 16.5t-65.5 26.5t-44 23.5t-34 22.5l36 58q66 -43 115 -60q80 -27 185 -27q48 0 96 7t94 21
t74.5 40.5t28.5 60.5q0 61 -67.5 94.5t-167.5 33.5h-89v68h89q85 0 138 29.5t53 80.5q0 45 -63.5 79t-168.5 34q-109 0 -245 -65z" />
    <glyph glyph-name="four" unicode="4" horiz-adv-x="889" 
d="M649 174v-174h-68v174h-473l-34 78l507 400h68v-410h166v-68h-166zM581 242v324l-411 -322v-2h411z" />
    <glyph glyph-name="five" unicode="5" horiz-adv-x="889" 
d="M203 584v-221q150 61 269 61q141 0 226.5 -64t85.5 -147q0 -107 -102 -168t-247 -61q-58 0 -109.5 8.5t-88.5 21.5t-62.5 25t-46 25t-23.5 14l38 55q134 -81 293 -81q133 0 206.5 46t73.5 110q0 56 -65 102t-174 46q-50 0 -99 -10t-77.5 -20.5t-67.5 -27.5t-52 -22
l-46 36v340h595v-68h-527z" />
    <glyph glyph-name="six" unicode="6" horiz-adv-x="889" 
d="M778 570l-39 -55q-48 28 -79 43t-79 28.5t-97 13.5q-151 0 -244.5 -88t-93.5 -206q151 99 343 99q56 0 109.5 -11t102.5 -33t79 -63t30 -95q0 -69 -56 -121t-134.5 -75t-161.5 -23q-167 0 -273.5 96t-106.5 236q0 150 119 251t293 101q149 0 288 -98zM459 52
q67 0 130.5 17t108 53.5t44.5 83.5q0 54 -69.5 92.5t-182.5 38.5q-57 0 -110.5 -10.5t-89 -24t-66.5 -31.5t-43 -27t-19 -15q8 -20 19 -38.5t35.5 -45t55 -46t80 -33.5t107.5 -14z" />
    <glyph glyph-name="seven" unicode="7" horiz-adv-x="889" 
d="M749 593l-435 -593h-85l429 584h-518v68h571z" />
    <glyph glyph-name="eight" unicode="8" horiz-adv-x="889" 
d="M799 181q0 -70 -53.5 -116t-130 -63.5t-171.5 -17.5t-171.5 17.5t-130 63.5t-53.5 116q0 67 43.5 109.5t95.5 58.5q-88 57 -88 140q0 179 304 179t304 -179q0 -83 -88 -140q52 -16 95.5 -58.5t43.5 -109.5zM444 52q132 0 209.5 34.5t77.5 96.5q0 56 -72.5 92t-214.5 36
t-214.5 -36.5t-72.5 -91.5q0 -62 77.5 -96.5t209.5 -34.5zM444 379q236 0 236 109q0 53 -59.5 82.5t-176.5 29.5q-116 0 -176 -30t-60 -82q0 -109 236 -109z" />
    <glyph glyph-name="nine" unicode="9" horiz-adv-x="889" 
d="M110 82l39 55q48 -28 79 -43t79 -28.5t97 -13.5q151 0 244.5 88t93.5 206q-151 -99 -343 -99q-56 0 -109.5 11t-102.5 33t-79 63t-30 95q0 69 56 121t134.5 75t161.5 23q167 0 273.5 -96t106.5 -236q0 -150 -119 -251t-293 -101q-149 0 -288 98zM398 315q57 0 110.5 10.5
t89 24t66.5 31.5t43 27t19 15q-8 20 -19 38.5t-35.5 45t-55 46t-80 33.5t-107.5 14q-67 0 -130.5 -17t-108 -53.5t-44.5 -83.5q0 -54 69.5 -92.5t182.5 -38.5z" />
    <glyph glyph-name="colon" unicode=":" horiz-adv-x="370" 
d="M248 427q0 -25 -19 -44t-44 -19t-44 19t-19 44t19 44t44 19t44 -19t19 -44zM248 47q0 -25 -19 -44t-44 -19t-44 19t-19 44t19 44t44 19t44 -19t19 -44z" />
    <glyph glyph-name="semicolon" unicode=";" horiz-adv-x="389" 
d="M268 6q0 -31 -11.5 -59.5t-28 -47.5t-34 -33.5t-30.5 -21.5t-17 -7q-8 0 -8 10q0 3 13.5 14t30.5 24.5t30.5 37t13.5 48.5q0 10 -12.5 12.5t-30.5 4t-27 6.5q-19 12 -27.5 24t-8.5 37t18.5 40t44.5 15q31 0 57.5 -29t26.5 -75zM248 427q0 -25 -19 -44t-44 -19t-44 19
t-19 44t19 44t44 19t44 -19t19 -44z" />
    <glyph glyph-name="question" unicode="?" horiz-adv-x="556" 
d="M256 262v-75h-66v75q0 41 7.5 60.5t35.5 41.5l105 81q41 31 58.5 61t17.5 80q0 115 -177 115q-83 0 -171 -24v70q64 19 181 19q69 0 120.5 -16t87 -59.5t35.5 -111.5q0 -104 -109 -184l-101 -77q-24 -18 -24 -56zM286 47q0 -26 -18.5 -44.5t-44.5 -18.5t-44.5 18.5
t-18.5 44.5t18.5 44.5t44.5 18.5q25 0 44 -19t19 -44z" />
    <glyph glyph-name="A" unicode="A" horiz-adv-x="833" 
d="M450 750l366 -750h-76l-131 266h-386l-131 -266h-76l366 750h68zM574 334l-158 340l-159 -340h317z" />
    <glyph glyph-name="B" unicode="B" horiz-adv-x="907" 
d="M112 750h439q90 0 150 -56t60 -142q0 -90 -75 -161q109 -68 109 -185q0 -94 -66.5 -150t-177.5 -56h-439v750zM180 419h371q62 0 102 36t40 97q0 58 -36.5 94t-105.5 36h-371v-263zM180 68h371q176 0 176 138q0 70 -47.5 107.5t-128.5 37.5h-371v-283z" />
    <glyph glyph-name="C" unicode="C" horiz-adv-x="926" 
d="M799 186l47 -50q-22 -21 -33.5 -30.5t-50.5 -37t-74.5 -42.5t-91.5 -28.5t-115 -13.5q-55 0 -110 14.5t-107.5 46t-93 76.5t-65.5 111t-25 143q0 93 36.5 169t96 123.5t131.5 73t147 25.5q61 0 115.5 -12t88.5 -26t68.5 -38.5t46.5 -36t33 -32.5l-46 -49q-53 51 -97 76
q-91 50 -209 50q-144 0 -243.5 -88.5t-99.5 -234.5q0 -135 95 -229t238 -94q50 0 98.5 12t79 25t65.5 37t45 33z" />
    <glyph glyph-name="D" unicode="D" horiz-adv-x="926" 
d="M118 750h378q75 0 139 -33.5t105 -87.5t64 -120.5t23 -133.5q0 -87 -38 -171.5t-116 -144t-177 -59.5h-378v750zM186 68h310q76 0 137.5 47t93.5 116.5t32 143.5q0 50 -18 103t-50 99t-83.5 75.5t-111.5 29.5h-310v-614z" />
    <glyph glyph-name="E" unicode="E" horiz-adv-x="852" 
d="M760 68v-68h-639v750h615v-68h-547v-261h298v-68h-298v-285h571z" />
    <glyph glyph-name="F" unicode="F" horiz-adv-x="833" 
d="M192 353v-353h-68v750h615v-68h-547v-261h343v-68h-343z" />
    <glyph glyph-name="G" unicode="G" horiz-adv-x="907" 
d="M828 398v-196q0 -83 -89.5 -150.5t-247.5 -67.5q-180 0 -296 112t-116 280q0 116 57 206t152 137t210 47q190 0 312 -135l-44 -49q-1 1 -15.5 14.5t-20.5 19t-23 18.5t-29.5 19.5t-34 16.5t-42 15t-48 9t-56.5 4q-161 0 -255.5 -94.5t-94.5 -227.5q0 -136 93 -230
t251 -94q124 0 196.5 48t72.5 101v129h-269v68h337z" />
    <glyph glyph-name="H" unicode="H" horiz-adv-x="1000" 
d="M828 750v-750h-68v354h-520v-354h-68v750h68v-328h520v328h68z" />
    <glyph glyph-name="I" unicode="I" horiz-adv-x="370" 
d="M219 750v-750h-68v750h68z" />
    <glyph glyph-name="J" unicode="J" horiz-adv-x="815" 
d="M697 750v-459q0 -134 -81 -220.5t-243 -86.5q-228 0 -315 203l58 30q13 -24 21 -37.5t31.5 -41t48 -43.5t65 -29.5t87.5 -13.5q124 0 192 61t68 178v459h68z" />
    <glyph glyph-name="K" unicode="K" horiz-adv-x="833" 
d="M468 474l315 -474h-82l-284 422l-227 -227v-195h-68v750h68v-459l458 459h95z" />
    <glyph glyph-name="L" unicode="L" horiz-adv-x="722" 
d="M668 68v-68h-555v750h68v-682h487z" />
    <glyph glyph-name="M" unicode="M" horiz-adv-x="1037" 
d="M888 750v-750h-68v616h-2l-300 -511l-300 511h-2v-616h-68v750h68l302 -523l302 523h68z" />
    <glyph glyph-name="N" unicode="N" horiz-adv-x="981" 
d="M821 750v-750h-68l-524 648h-2v-648h-68v750h68l524 -651h2v651h68z" />
    <glyph glyph-name="O" unicode="O" horiz-adv-x="963" 
d="M883 375q0 -169 -114.5 -280t-287.5 -111t-287.5 111t-114.5 280t114.5 280t287.5 111q174 0 288 -111t114 -280zM481 52q147 0 240.5 95t93.5 228t-93.5 228t-240.5 95t-240.5 -95t-93.5 -228t93.5 -228t240.5 -95z" />
    <glyph glyph-name="P" unicode="P" horiz-adv-x="870" 
d="M194 323v-323h-68v750h399q251 0 251 -213q0 -214 -251 -214h-331zM194 391h331q88 0 135.5 31t47.5 115q0 83 -47.5 114t-135.5 31h-331v-291z" />
    <glyph glyph-name="Q" unicode="Q" horiz-adv-x="1000" 
d="M797 -35l-62 -36l-80 81q-55 -26 -155 -26q-173 0 -287.5 111t-114.5 280t114.5 280t287.5 111q174 0 288 -111t114 -280q0 -96 -49.5 -187t-131.5 -145zM596 173l75 -78q77 46 120 120t43 160q0 133 -93.5 228t-240.5 95t-240.5 -95t-93.5 -228t93.5 -228t240.5 -95
q63 0 102 13l-70 72z" />
    <glyph glyph-name="R" unicode="R" horiz-adv-x="889" 
d="M588 320l189 -320h-79l-188 320h-327v-320h-68v750h459q60 0 105 -21.5t68.5 -55.5t34.5 -68t11 -66q0 -50 -15.5 -89.5t-37.5 -62.5t-52 -38.5t-53.5 -21t-46.5 -7.5zM183 388h331q34 0 59 2t56 10.5t50 24t32.5 44.5t13.5 70q0 43 -16 73t-41.5 44t-48.5 20t-45 6h-391
v-294z" />
    <glyph glyph-name="S" unicode="S" horiz-adv-x="833" 
d="M346 427l176 -3q120 -2 189 -63t69 -148q0 -43 -19 -81.5t-58.5 -72.5t-111.5 -54.5t-167 -20.5q-75 0 -136.5 14t-105 39t-68 44.5t-51.5 45.5q-1 2 -2 3l-2.5 2.5t-3 2.5t-2.5 2l47 49q5 -4 32 -28t47 -37.5t56 -32t83.5 -27.5t105.5 -9q125 0 206.5 41t81.5 120
q0 56 -51 98.5t-143 44.5l-172 3q-44 0 -83.5 9t-76 28.5t-58 58t-21.5 90.5q0 39 18 76.5t54.5 70.5t101 53.5t147.5 20.5q43 0 83.5 -6.5t67.5 -14.5t57 -23t43 -23t35 -23.5t23 -16.5l-42 -51q-84 52 -125 67q-63 23 -137 23q-127 0 -192.5 -49t-65.5 -105
q0 -115 171 -117z" />
    <glyph glyph-name="T" unicode="T" horiz-adv-x="759" 
d="M413 682v-682h-68v682h-284v68h636v-68h-284z" />
    <glyph glyph-name="U" unicode="U" horiz-adv-x="963" 
d="M812 750v-479q0 -140 -87 -213.5t-244 -73.5t-244 73.5t-87 213.5v479h68v-479q0 -105 65 -162t198 -57t198 57t65 162v479h68z" />
    <glyph glyph-name="V" unicode="V" horiz-adv-x="833" 
d="M810 750l-360 -750h-68l-360 750h74l320 -664l320 664h74z" />
    <glyph glyph-name="W" unicode="W" horiz-adv-x="1000" 
d="M979 750l-241 -750h-68l-170 613h-2l-167 -613h-68l-242 750h72l202 -634h2l168 634h68l172 -634h2l200 634h72z" />
    <glyph glyph-name="X" unicode="X" horiz-adv-x="778" 
d="M432 406l324 -406h-88l-279 350l-280 -350h-88l324 406l-277 344h88l233 -290l231 290h88z" />
    <glyph glyph-name="Y" unicode="Y" horiz-adv-x="778" 
d="M423 327v-327h-68v327l-337 423h88l283 -357l283 357h88z" />
    <glyph glyph-name="Z" unicode="Z" 
d="M669 68v-68h-616l-37 72l554 610h-513v68h568l39 -71l-557 -611h562z" />
    <glyph glyph-name="bracketleft" unicode="[" horiz-adv-x="278" 
d="M217 45v-45h-156v750h156v-45h-88v-660h88z" />
    <glyph glyph-name="bracketright" unicode="]" horiz-adv-x="278" 
d="M217 750v-750h-156v45h88v660h-88v45h156z" />
    <glyph glyph-name="grave" unicode="`" horiz-adv-x="352" 
d="M196 690l68 -110h-78l-99 110h109z" />
    <glyph glyph-name="a" unicode="a" 
d="M372 518l292 -518h-68l-75 129h-357l-75 -129h-68l293 518h58zM483 197l-140 253l-140 -253h280z" />
    <glyph glyph-name="b" unicode="b" horiz-adv-x="741" 
d="M110 518h356q62 0 101 -40t39 -98q0 -62 -42 -100q31 -23 48.5 -51.5t17.5 -75.5q0 -44 -15.5 -75t-43 -47.5t-58 -23.5t-67.5 -7h-336v518zM178 68h268q55 0 85.5 16.5t30.5 68.5q0 87 -116 87h-268v-172zM178 308h268q43 0 67.5 15t24.5 57q0 41 -24.5 55.5t-67.5 14.5
h-268v-142z" />
    <glyph glyph-name="c" unicode="c" horiz-adv-x="741" 
d="M631 125l27 -62q-103 -79 -255 -79q-150 0 -236.5 78.5t-86.5 197.5q0 66 28 119.5t73.5 86.5t98.5 50.5t106 17.5q156 0 274 -101l-38 -57q-31 25 -55 40.5t-74 32.5t-104 17q-111 0 -176 -61.5t-65 -147.5t66.5 -145.5t187.5 -59.5q21 0 40.5 1.5t37 5t30.5 5.5
t27.5 8.5t22.5 9.5t21.5 11t17 10.5t17.5 11.5t15 10z" />
    <glyph glyph-name="d" unicode="d" horiz-adv-x="759" 
d="M108 518h290q121 0 187 -73.5t66 -185.5t-66 -185.5t-187 -73.5h-290v518zM176 68h222q84 0 134.5 53t50.5 138t-50 138t-133 53h-224v-382z" />
    <glyph glyph-name="e" unicode="e" 
d="M575 68v-68h-465v518h454v-68h-386v-151h221v-68h-221v-163h397z" />
    <glyph glyph-name="f" unicode="f" horiz-adv-x="667" 
d="M178 235v-235h-68v518h447v-68h-379v-147h234v-68h-234z" />
    <glyph glyph-name="g" unicode="g" horiz-adv-x="741" 
d="M658 282v-201q-112 -97 -267 -97q-138 0 -223 79.5t-85 196.5q0 120 92 197t225 77q20 0 39 -2t34.5 -4.5t32 -7.5t28 -8.5t25.5 -10.5t22 -10.5t19.5 -11t16 -10.5t14 -9.5t10.5 -7.5l-37 -57q-34 23 -50.5 33t-61 24t-92.5 14q-107 0 -178 -57.5t-71 -148.5
q0 -89 65 -148.5t179 -59.5q118 0 195 60v102h-170v68h238z" />
    <glyph glyph-name="h" unicode="h" horiz-adv-x="796" 
d="M644 518v-518h-68v232h-356v-232h-68v518h68v-218h356v218h68z" />
    <glyph glyph-name="i" unicode="i" horiz-adv-x="370" 
d="M219 518v-518h-68v518h68z" />
    <glyph glyph-name="j" unicode="j" horiz-adv-x="648" 
d="M521 518v-334q0 -32 -13 -65t-39.5 -64.5t-76 -51t-114.5 -19.5q-97 0 -154.5 44.5t-75.5 94.5l56 38q21 -41 64 -75t109 -34q84 0 130 40t46 92v334h68z" />
    <glyph glyph-name="k" unicode="k" horiz-adv-x="667" 
d="M362 328l238 -328h-86l-202 281l-138 -127v-154h-68v518h68v-271l296 271h99z" />
    <glyph glyph-name="l" unicode="l" horiz-adv-x="574" 
d="M504 68v-68h-404v518h68v-450h336z" />
    <glyph glyph-name="m" unicode="m" horiz-adv-x="870" 
d="M721 518v-518h-68v407h-2l-216 -339l-216 339h-2v-407h-68v518h68l218 -339l218 339h68z" />
    <glyph glyph-name="n" unicode="n" horiz-adv-x="796" 
d="M646 518v-518h-68l-361 424v-424h-68v518h68l361 -423v423h68z" />
    <glyph glyph-name="o" unicode="o" horiz-adv-x="796" 
d="M710 259q0 -122 -88.5 -198.5t-223.5 -76.5t-223.5 76.5t-88.5 198.5t88.5 198.5t223.5 76.5t223.5 -76.5t88.5 -198.5zM398 52q108 0 176 61t68 146t-68 146t-176 61t-176 -61t-68 -146t68 -146t176 -61z" />
    <glyph glyph-name="p" unicode="p" horiz-adv-x="704" 
d="M180 196v-196h-68v518h317q34 0 63.5 -7.5t58 -24t45 -50t16.5 -80.5t-16.5 -80.5t-45 -50t-58 -23t-63.5 -6.5h-249zM180 264h249q60 0 87.5 22t27.5 70q0 49 -27.5 71.5t-87.5 22.5h-249v-186z" />
    <glyph glyph-name="q" unicode="q" horiz-adv-x="815" 
d="M652 -34l-66 -28l-59 62q-27 -7 -58 -12q-40 -4 -62 -4q-135 0 -224 76.5t-89 198.5t89 198.5t224 76.5t224 -76.5t89 -198.5q0 -73 -34.5 -132.5t-92.5 -97.5zM490 137l54 -56q50 30 79 77.5t29 100.5q0 86 -68 146.5t-177 60.5t-177 -60.5t-68 -146.5t68 -146.5
t177 -60.5q47 0 62 4l-46 52z" />
    <glyph glyph-name="r" unicode="r" horiz-adv-x="741" 
d="M494 215l151 -215h-85l-147 210h-229v-210h-68v518h321q38 0 71 -8t62.5 -25t46.5 -48t17 -73q0 -66 -44.5 -105t-95.5 -44zM184 278h253q129 0 129 86t-129 86h-253v-172z" />
    <glyph glyph-name="s" unicode="s" 
d="M275 305l144 -4q83 -3 143 -41t60 -111t-59.5 -119t-192.5 -46q-60 0 -112.5 9.5t-93 27.5t-58.5 28t-44 27l33 62q31 -22 55.5 -36.5t85 -32t129.5 -17.5q95 0 142 25.5t47 69.5q0 43 -35 63.5t-85 22.5l-155 4q-26 0 -54.5 7.5t-57.5 22.5t-47.5 44.5t-18.5 69.5
q0 68 60 110.5t164 42.5q159 0 267 -72l-31 -61q-112 65 -222 65q-89 0 -129.5 -23.5t-40.5 -60.5q0 -75 106 -77z" />
    <glyph glyph-name="t" unicode="t" horiz-adv-x="593" 
d="M330 450v-450h-68v450h-208v68h484v-68h-208z" />
    <glyph glyph-name="u" unicode="u" horiz-adv-x="796" 
d="M648 518v-319q0 -115 -69.5 -165t-180.5 -50t-180.5 50t-69.5 165v319h68v-319q0 -147 182 -147t182 147v319h68z" />
    <glyph glyph-name="v" unicode="v" horiz-adv-x="667" 
d="M645 518l-278 -518h-68l-278 518h78l234 -440l234 440h78z" />
    <glyph glyph-name="w" unicode="w" horiz-adv-x="833" 
d="M816 518l-193 -518h-68l-134 414h-2l-137 -414h-68l-197 518h74l156 -420h2l141 420h62l136 -420h2l152 420h74z" />
    <glyph glyph-name="x" unicode="x" horiz-adv-x="648" 
d="M370 277l263 -277h-94l-215 228l-216 -228h-94l263 277l-229 241h94l182 -193l181 193h94z" />
    <glyph glyph-name="y" unicode="y" horiz-adv-x="574" 
d="M320 257v-257h-68v257l-235 261h89l180 -199l180 199h90z" />
    <glyph glyph-name="z" unicode="z" horiz-adv-x="537" 
d="M517 68v-68h-458l-40 62l397 388h-371v68h425l39 -60l-397 -390h405z" />
    <glyph glyph-name="braceleft" unicode="{" horiz-adv-x="500" 
d="M407 -183v-25q-80 3 -145.5 52t-65.5 118q0 36 12 96q16 80 16 94q0 44 -32 78t-78 49v24q47 15 78.5 47.5t31.5 79.5q0 14 -16 94q-12 60 -12 96q0 69 65.5 118t145.5 52v-25q-52 -12 -79.5 -50.5t-27.5 -85.5q0 -29 7 -85t7 -79q0 -39 -15.5 -70t-45.5 -52t-47 -30
t-47 -22q23 -10 36 -16.5t39 -23t41 -33.5t27 -44t12 -57q0 -23 -7 -79t-7 -85q0 -47 27.5 -85.5t79.5 -50.5z" />
    <glyph glyph-name="braceright" unicode="}" horiz-adv-x="500" 
d="M388 303v-24q-46 -15 -78 -49t-32 -78q0 -14 16 -94q12 -60 12 -96q0 -69 -65.5 -118t-145.5 -52v25q52 12 79.5 50.5t27.5 85.5q0 29 -7 85t-7 79q0 30 12 57t27 44t41 33.5t39 23t36 16.5q-30 13 -47 22t-47 30t-45.5 52t-15.5 70q0 23 7 79t7 85q0 47 -27.5 85.5
t-79.5 50.5v25q80 -3 145.5 -52t65.5 -118q0 -36 -12 -96q-16 -80 -16 -94q0 -47 31.5 -79.5t78.5 -47.5z" />
    <glyph glyph-name="nbspace" unicode="&#xa0;" horiz-adv-x="500" 
 />
    <glyph glyph-name="cent" unicode="&#xa2;" horiz-adv-x="889" 
d="M705 192l27 -62q-98 -74 -243 -77v-93h-54v93q-29 2 -62.5 11.5t-73 30.5t-71.5 51t-53 77t-21 104q0 59 22 107.5t55 78.5t73 50.5t73 29t58 8.5v92h54v-92q156 -16 246 -101l-38 -57q-43 43 -101 66.5t-107 23.5v-412q82 7 118 19t98 52zM435 121v412q-25 0 -58 -10.5
t-69.5 -32.5t-61 -65.5t-24.5 -100.5q0 -53 24 -94.5t59.5 -64t69 -33.5t60.5 -11z" />
    <glyph glyph-name="sterling" unicode="&#xa3;" horiz-adv-x="889" 
d="M718 68v-68h-569v68h101v237h-101v68h101v69q0 96 62.5 161t203.5 65q103 0 163.5 -58t60.5 -135h-75q0 49 -44.5 87t-120.5 38q-87 0 -131 -46t-44 -112v-69h197v-68h-197v-237h393z" />
    <glyph glyph-name="yen" unicode="&#xa5;" horiz-adv-x="889" 
d="M480 228v-228h-68v228h-226v55h226l-87 94h-139v55h91l-199 220h86l282 -311l278 311h86l-197 -220h92v-55h-140l-85 -94h225v-55h-225z" />
    <glyph glyph-name="dieresis" unicode="&#xa8;" horiz-adv-x="352" 
d="M133 672v-92h-92v92h92zM310 672v-92h-92v92h92z" />
    <glyph glyph-name="guillemotleft" unicode="&#xab;" horiz-adv-x="519" 
d="M53 260l135 195h72l-115 -195l115 -193h-72zM258 260l135 195h72l-115 -195l115 -193h-72z" />
    <glyph glyph-name="acute" unicode="&#xb4;" horiz-adv-x="352" 
d="M264 690l-99 -110h-78l68 110h109z" />
    <glyph glyph-name="guillemotright" unicode="&#xbb;" horiz-adv-x="519" 
d="M465 260l-135 -193h-72l115 193l-115 195h72zM260 260l-135 -193h-72l115 193l-115 195h72z" />
    <glyph glyph-name="onequarter" unicode="&#xbc;" horiz-adv-x="963" 
d="M781 102v-102h-50v102h-286l-24 53l310 237h50v-240h95v-50h-95zM731 152v177l-229 -175v-2h229zM229 652v-392h-50v392h50zM704 686l-514 -720h-55l514 720h55z" />
    <glyph glyph-name="onehalf" unicode="&#xbd;" horiz-adv-x="963" 
d="M198 652v-392h-50v392h50zM863 50v-50h-342q0 180 155 213l61 13q40 8 60 21.5t20 38.5t-29.5 47.5t-85.5 22.5q-14 0 -27 -1.5t-22 -3t-21 -6.5t-17.5 -7t-17 -9t-15 -9t-15.5 -11t-14 -10l-27 44q82 63 170 63q57 0 114 -32t57 -87q0 -45 -27.5 -70.5t-67.5 -34.5
l-74 -15q-60 -13 -87.5 -46t-29.5 -71h282zM674 686l-514 -720h-55l514 720h55z" />
    <glyph glyph-name="threequarters" unicode="&#xbe;" horiz-adv-x="963" 
d="M885 102v-102h-50v102h-286l-24 53l310 237h50v-240h95v-50h-95zM835 152v177l-229 -175v-2h229zM95 579l-24 45q90 44 160 44q79 0 123.5 -34.5t44.5 -80.5q0 -8 -1.5 -15.5t-3.5 -13t-5.5 -12t-6 -10t-8 -9l-7 -7t-7 -6.5t-6.5 -5q20 -14 30 -22t23 -29t13 -44
q0 -50 -46 -88.5t-131 -38.5q-135 0 -221 68l28 43q88 -61 188 -61q62 0 94.5 24t32.5 52q0 37 -39 53.5t-90 16.5h-45v50h53q50 0 75 16t25 40q0 25 -32 44t-76 19q-59 0 -141 -39zM808 686l-514 -720h-55l514 720h55z" />
    <glyph glyph-name="Agrave" unicode="&#xc0;" horiz-adv-x="833" 
d="M450 750l366 -750h-76l-131 266h-386l-131 -266h-76l366 750h68zM574 334l-158 340l-159 -340h317zM417 922l68 -110h-78l-99 110h109z" />
    <glyph glyph-name="Aacute" unicode="&#xc1;" horiz-adv-x="833" 
d="M450 750l366 -750h-76l-131 266h-386l-131 -266h-76l366 750h68zM574 334l-158 340l-159 -340h317zM540 922l-99 -110h-78l68 110h109z" />
    <glyph glyph-name="Acircumflex" unicode="&#xc2;" horiz-adv-x="833" 
d="M450 750l366 -750h-76l-131 266h-386l-131 -266h-76l366 750h68zM574 334l-158 340l-159 -340h317zM485 919l75 -107h-76l-57 57l-57 -57h-76l75 107h116z" />
    <glyph glyph-name="Atilde" unicode="&#xc3;" horiz-adv-x="833" 
d="M450 750l366 -750h-76l-131 266h-386l-131 -266h-76l366 750h68zM574 334l-158 340l-159 -340h317zM534 922h60q0 -44 -15 -70q-23 -35 -72 -35q-31 0 -85 16q-58 15 -72 15q-12 0 -21.5 -10t-9.5 -26h-59q0 106 86 106q31 0 83 -16q47 -17 68 -17q15 0 26 11.5t11 25.5z
" />
    <glyph glyph-name="Adieresis" unicode="&#xc4;" horiz-adv-x="833" 
d="M450 750l366 -750h-76l-131 266h-386l-131 -266h-76l366 750h68zM574 334l-158 340l-159 -340h317zM384 904v-92h-92v92h92zM561 904v-92h-92v92h92z" />
    <glyph glyph-name="Aring" unicode="&#xc5;" horiz-adv-x="833" 
d="M450 750l366 -750h-76l-131 266h-386l-131 -266h-76l366 750h68zM574 334l-158 340l-159 -340h317zM541 926q0 -48 -34 -81t-80 -33t-80 33t-34 81t34 81t80 33t80 -33t34 -81zM427 867q23 0 41 17t18 42q0 24 -17.5 41.5t-41.5 17.5t-41.5 -17t-17.5 -42q0 -24 17 -41.5
t42 -17.5z" />
    <glyph glyph-name="Ccedilla" unicode="&#xc7;" horiz-adv-x="926" 
d="M510 -17l-43 -65q24 2 36 2q43 0 66 -22t23 -54q0 -43 -36 -67.5t-90 -24.5q-53 0 -122 23l22 50q61 -19 91 -19q19 0 33.5 9.5t14.5 25.5t-12.5 25.5t-29.5 9.5t-45 -8l-22 29l58 87q-53 4 -105 20.5t-101 49t-86 76.5t-59.5 107.5t-22.5 137.5q0 93 36.5 169t96 123.5
t131.5 73t147 25.5q61 0 115.5 -12t88.5 -26t68.5 -38.5t46.5 -36t33 -32.5l-46 -49q-53 51 -97 76q-91 50 -209 50q-144 0 -243.5 -88.5t-99.5 -234.5q0 -135 95 -229t238 -94q50 0 98.5 12t79 25t65.5 37t45 33l30 27l47 -50q-24 -22 -32 -29.5t-46.5 -35t-69.5 -42
t-83 -29t-105 -17.5z" />
    <glyph glyph-name="Egrave" unicode="&#xc8;" horiz-adv-x="852" 
d="M760 68v-68h-639v750h615v-68h-547v-261h298v-68h-298v-285h571zM426 922l68 -110h-78l-99 110h109z" />
    <glyph glyph-name="Eacute" unicode="&#xc9;" horiz-adv-x="852" 
d="M760 68v-68h-639v750h615v-68h-547v-261h298v-68h-298v-285h571zM524 922l-99 -110h-78l68 110h109z" />
    <glyph glyph-name="Ecircumflex" unicode="&#xca;" horiz-adv-x="852" 
d="M760 68v-68h-639v750h615v-68h-547v-261h298v-68h-298v-285h571zM464 919l75 -107h-76l-57 57l-57 -57h-76l75 107h116z" />
    <glyph glyph-name="Edieresis" unicode="&#xcb;" horiz-adv-x="852" 
d="M760 68v-68h-639v750h615v-68h-547v-261h298v-68h-298v-285h571zM363 904v-92h-92v92h92zM540 904v-92h-92v92h92z" />
    <glyph glyph-name="Igrave" unicode="&#xcc;" horiz-adv-x="370" 
d="M219 750v-750h-68v750h68zM195 922l68 -110h-78l-99 110h109z" />
    <glyph glyph-name="Iacute" unicode="&#xcd;" horiz-adv-x="370" 
d="M219 750v-750h-68v750h68zM308 922l-99 -110h-78l68 110h109z" />
    <glyph glyph-name="Icircumflex" unicode="&#xce;" horiz-adv-x="370" 
d="M219 750v-750h-68v750h68zM253 919l75 -107h-76l-57 57l-57 -57h-76l75 107h116z" />
    <glyph glyph-name="Idieresis" unicode="&#xcf;" horiz-adv-x="370" 
d="M219 750v-750h-68v750h68zM152 904v-92h-92v92h92zM329 904v-92h-92v92h92z" />
    <glyph glyph-name="Ntilde" unicode="&#xd1;" horiz-adv-x="981" 
d="M821 750v-750h-68l-524 648h-2v-648h-68v750h68l524 -651h2v651h68zM608 922h60q0 -44 -15 -70q-23 -35 -72 -35q-31 0 -85 16q-58 15 -72 15q-12 0 -21.5 -10t-9.5 -26h-59q0 106 86 106q31 0 83 -16q47 -17 68 -17q15 0 26 11.5t11 25.5z" />
    <glyph glyph-name="Ograve" unicode="&#xd2;" horiz-adv-x="963" 
d="M883 375q0 -169 -114.5 -280t-287.5 -111t-287.5 111t-114.5 280t114.5 280t287.5 111q174 0 288 -111t114 -280zM481 52q147 0 240.5 95t93.5 228t-93.5 228t-240.5 95t-240.5 -95t-93.5 -228t93.5 -228t240.5 -95zM492 922l68 -110h-78l-99 110h109z" />
    <glyph glyph-name="Oacute" unicode="&#xd3;" horiz-adv-x="963" 
d="M883 375q0 -169 -114.5 -280t-287.5 -111t-287.5 111t-114.5 280t114.5 280t287.5 111q174 0 288 -111t114 -280zM481 52q147 0 240.5 95t93.5 228t-93.5 228t-240.5 95t-240.5 -95t-93.5 -228t93.5 -228t240.5 -95zM605 922l-99 -110h-78l68 110h109z" />
    <glyph glyph-name="Ocircumflex" unicode="&#xd4;" horiz-adv-x="963" 
d="M883 375q0 -169 -114.5 -280t-287.5 -111t-287.5 111t-114.5 280t114.5 280t287.5 111q174 0 288 -111t114 -280zM481 52q147 0 240.5 95t93.5 228t-93.5 228t-240.5 95t-240.5 -95t-93.5 -228t93.5 -228t240.5 -95zM550 919l75 -107h-76l-57 57l-57 -57h-76l75 107h116z
" />
    <glyph glyph-name="Otilde" unicode="&#xd5;" horiz-adv-x="963" 
d="M883 375q0 -169 -114.5 -280t-287.5 -111t-287.5 111t-114.5 280t114.5 280t287.5 111q174 0 288 -111t114 -280zM481 52q147 0 240.5 95t93.5 228t-93.5 228t-240.5 95t-240.5 -95t-93.5 -228t93.5 -228t240.5 -95zM609 922h60q0 -44 -15 -70q-23 -35 -72 -35
q-31 0 -85 16q-58 15 -72 15q-12 0 -21.5 -10t-9.5 -26h-59q0 106 86 106q31 0 83 -16q47 -17 68 -17q15 0 26 11.5t11 25.5z" />
    <glyph glyph-name="Odieresis" unicode="&#xd6;" horiz-adv-x="963" 
d="M883 375q0 -169 -114.5 -280t-287.5 -111t-287.5 111t-114.5 280t114.5 280t287.5 111q174 0 288 -111t114 -280zM481 52q147 0 240.5 95t93.5 228t-93.5 228t-240.5 95t-240.5 -95t-93.5 -228t93.5 -228t240.5 -95zM449 904v-92h-92v92h92zM626 904v-92h-92v92h92z" />
    <glyph glyph-name="Ugrave" unicode="&#xd9;" horiz-adv-x="963" 
d="M812 750v-479q0 -140 -87 -213.5t-244 -73.5t-244 73.5t-87 213.5v479h68v-479q0 -105 65 -162t198 -57t198 57t65 162v479h68zM482 922l68 -110h-78l-99 110h109z" />
    <glyph glyph-name="Uacute" unicode="&#xda;" horiz-adv-x="963" 
d="M812 750v-479q0 -140 -87 -213.5t-244 -73.5t-244 73.5t-87 213.5v479h68v-479q0 -105 65 -162t198 -57t198 57t65 162v479h68zM605 922l-99 -110h-78l68 110h109z" />
    <glyph glyph-name="Ucircumflex" unicode="&#xdb;" horiz-adv-x="963" 
d="M812 750v-479q0 -140 -87 -213.5t-244 -73.5t-244 73.5t-87 213.5v479h68v-479q0 -105 65 -162t198 -57t198 57t65 162v479h68zM550 919l75 -107h-76l-57 57l-57 -57h-76l75 107h116z" />
    <glyph glyph-name="Udieresis" unicode="&#xdc;" horiz-adv-x="963" 
d="M812 750v-479q0 -140 -87 -213.5t-244 -73.5t-244 73.5t-87 213.5v479h68v-479q0 -105 65 -162t198 -57t198 57t65 162v479h68zM449 904v-92h-92v92h92zM626 904v-92h-92v92h92z" />
    <glyph glyph-name="Yacute" unicode="&#xdd;" horiz-adv-x="778" 
d="M423 327v-327h-68v327l-337 423h88l283 -357l283 357h88zM487 922l-99 -110h-78l68 110h109z" />
    <glyph glyph-name="agrave" unicode="&#xe0;" 
d="M372 518l292 -518h-68l-75 129h-357l-75 -129h-68l293 518h58zM483 197l-140 253l-140 -253h280zM333 690l68 -110h-78l-99 110h109z" />
    <glyph glyph-name="aacute" unicode="&#xe1;" 
d="M372 518l292 -518h-68l-75 129h-357l-75 -129h-68l293 518h58zM483 197l-140 253l-140 -253h280zM461 690l-99 -110h-78l68 110h109z" />
    <glyph glyph-name="acircumflex" unicode="&#xe2;" 
d="M372 518l292 -518h-68l-75 129h-357l-75 -129h-68l293 518h58zM483 197l-140 253l-140 -253h280zM401 687l75 -107h-76l-57 57l-57 -57h-76l75 107h116z" />
    <glyph glyph-name="atilde" unicode="&#xe3;" 
d="M372 518l292 -518h-68l-75 129h-357l-75 -129h-68l293 518h58zM483 197l-140 253l-140 -253h280zM450 690h60q0 -44 -15 -70q-23 -35 -72 -35q-31 0 -85 16q-58 15 -72 15q-12 0 -21.5 -10t-9.5 -26h-59q0 106 86 106q31 0 83 -16q47 -17 68 -17q15 0 26 11.5t11 25.5z
" />
    <glyph glyph-name="adieresis" unicode="&#xe4;" 
d="M372 518l292 -518h-68l-75 129h-357l-75 -129h-68l293 518h58zM483 197l-140 253l-140 -253h280zM300 672v-92h-92v92h92zM477 672v-92h-92v92h92z" />
    <glyph glyph-name="aring" unicode="&#xe5;" 
d="M372 518l292 -518h-68l-75 129h-357l-75 -129h-68l293 518h58zM483 197l-140 253l-140 -253h280zM462 694q0 -48 -34 -81t-80 -33t-80 33t-34 81t34 81t80 33t80 -33t34 -81zM348 635q23 0 41 17t18 42q0 24 -17.5 41.5t-41.5 17.5t-41.5 -17t-17.5 -42q0 -24 17 -41.5
t42 -17.5z" />
    <glyph glyph-name="ccedilla" unicode="&#xe7;" horiz-adv-x="741" 
d="M420 -17l-43 -55q24 2 36 2q43 0 66 -22t23 -54q0 -38 -35.5 -60t-90.5 -22q-53 0 -122 23l22 50q61 -19 91 -19q19 0 33.5 7t14.5 18q0 16 -12.5 25.5t-29.5 9.5t-45 -8l-22 29l58 77q-121 9 -202.5 88.5t-81.5 187.5q0 66 28 119.5t73.5 86.5t98.5 50.5t106 17.5
q156 0 274 -101l-38 -57q-31 25 -55 40.5t-74 32.5t-104 17q-111 0 -176 -61.5t-65 -147.5t66.5 -145.5t187.5 -59.5q21 0 40.5 1.5t37 5t30.5 5.5t27.5 8.5t22.5 9.5t21.5 11t17 10.5t17.5 11.5t15 10l27 -62q-95 -78 -238 -80z" />
    <glyph glyph-name="egrave" unicode="&#xe8;" 
d="M575 68v-68h-465v518h454v-68h-386v-151h221v-68h-221v-163h397zM333 690l68 -110h-78l-99 110h109z" />
    <glyph glyph-name="eacute" unicode="&#xe9;" 
d="M575 68v-68h-465v518h454v-68h-386v-151h221v-68h-221v-163h397zM451 690l-99 -110h-78l68 110h109z" />
    <glyph glyph-name="ecircumflex" unicode="&#xea;" 
d="M575 68v-68h-465v518h454v-68h-386v-151h221v-68h-221v-163h397zM376 687l75 -107h-76l-57 57l-57 -57h-76l75 107h116z" />
    <glyph glyph-name="edieresis" unicode="&#xeb;" 
d="M575 68v-68h-465v518h454v-68h-386v-151h221v-68h-221v-163h397zM290 672v-92h-92v92h92zM467 672v-92h-92v92h92z" />
    <glyph glyph-name="igrave" unicode="&#xec;" horiz-adv-x="370" 
d="M219 518v-518h-68v518h68zM185 690l68 -110h-78l-99 110h109z" />
    <glyph glyph-name="iacute" unicode="&#xed;" horiz-adv-x="370" 
d="M219 518v-518h-68v518h68zM303 690l-99 -110h-78l68 110h109z" />
    <glyph glyph-name="icircumflex" unicode="&#xee;" horiz-adv-x="370" 
d="M219 518v-518h-68v518h68zM243 687l75 -107h-76l-57 57l-57 -57h-76l75 107h116z" />
    <glyph glyph-name="idieresis" unicode="&#xef;" horiz-adv-x="370" 
d="M219 518v-518h-68v518h68zM152 672v-92h-92v92h92zM329 672v-92h-92v92h92z" />
    <glyph glyph-name="ntilde" unicode="&#xf1;" horiz-adv-x="796" 
d="M646 518v-518h-68l-361 424v-424h-68v518h68l361 -423v423h68zM515 690h60q0 -44 -15 -70q-23 -35 -72 -35q-31 0 -85 16q-58 15 -72 15q-12 0 -21.5 -10t-9.5 -26h-59q0 106 86 106q31 0 83 -16q47 -17 68 -17q15 0 26 11.5t11 25.5z" />
    <glyph glyph-name="ograve" unicode="&#xf2;" horiz-adv-x="796" 
d="M710 259q0 -122 -88.5 -198.5t-223.5 -76.5t-223.5 76.5t-88.5 198.5t88.5 198.5t223.5 76.5t223.5 -76.5t88.5 -198.5zM398 52q108 0 176 61t68 146t-68 146t-176 61t-176 -61t-68 -146t68 -146t176 -61zM408 690l68 -110h-78l-99 110h109z" />
    <glyph glyph-name="oacute" unicode="&#xf3;" horiz-adv-x="796" 
d="M710 259q0 -122 -88.5 -198.5t-223.5 -76.5t-223.5 76.5t-88.5 198.5t88.5 198.5t223.5 76.5t223.5 -76.5t88.5 -198.5zM398 52q108 0 176 61t68 146t-68 146t-176 61t-176 -61t-68 -146t68 -146t176 -61zM496 690l-99 -110h-78l68 110h109z" />
    <glyph glyph-name="ocircumflex" unicode="&#xf4;" horiz-adv-x="796" 
d="M710 259q0 -122 -88.5 -198.5t-223.5 -76.5t-223.5 76.5t-88.5 198.5t88.5 198.5t223.5 76.5t223.5 -76.5t88.5 -198.5zM398 52q108 0 176 61t68 146t-68 146t-176 61t-176 -61t-68 -146t68 -146t176 -61zM456 687l75 -107h-76l-57 57l-57 -57h-76l75 107h116z" />
    <glyph glyph-name="otilde" unicode="&#xf5;" horiz-adv-x="796" 
d="M710 259q0 -122 -88.5 -198.5t-223.5 -76.5t-223.5 76.5t-88.5 198.5t88.5 198.5t223.5 76.5t223.5 -76.5t88.5 -198.5zM398 52q108 0 176 61t68 146t-68 146t-176 61t-176 -61t-68 -146t68 -146t176 -61zM515 690h60q0 -44 -15 -70q-23 -35 -72 -35q-31 0 -85 16
q-58 15 -72 15q-12 0 -21.5 -10t-9.5 -26h-59q0 106 86 106q31 0 83 -16q47 -17 68 -17q15 0 26 11.5t11 25.5z" />
    <glyph glyph-name="odieresis" unicode="&#xf6;" horiz-adv-x="796" 
d="M710 259q0 -122 -88.5 -198.5t-223.5 -76.5t-223.5 76.5t-88.5 198.5t88.5 198.5t223.5 76.5t223.5 -76.5t88.5 -198.5zM398 52q108 0 176 61t68 146t-68 146t-176 61t-176 -61t-68 -146t68 -146t176 -61zM360 672v-92h-92v92h92zM537 672v-92h-92v92h92z" />
    <glyph glyph-name="ugrave" unicode="&#xf9;" horiz-adv-x="796" 
d="M648 518v-319q0 -115 -69.5 -165t-180.5 -50t-180.5 50t-69.5 165v319h68v-319q0 -147 182 -147t182 147v319h68zM393 690l68 -110h-78l-99 110h109z" />
    <glyph glyph-name="uacute" unicode="&#xfa;" horiz-adv-x="796" 
d="M648 518v-319q0 -115 -69.5 -165t-180.5 -50t-180.5 50t-69.5 165v319h68v-319q0 -147 182 -147t182 147v319h68zM501 690l-99 -110h-78l68 110h109z" />
    <glyph glyph-name="ucircumflex" unicode="&#xfb;" horiz-adv-x="796" 
d="M648 518v-319q0 -115 -69.5 -165t-180.5 -50t-180.5 50t-69.5 165v319h68v-319q0 -147 182 -147t182 147v319h68zM456 687l75 -107h-76l-57 57l-57 -57h-76l75 107h116z" />
    <glyph glyph-name="udieresis" unicode="&#xfc;" horiz-adv-x="796" 
d="M648 518v-319q0 -115 -69.5 -165t-180.5 -50t-180.5 50t-69.5 165v319h68v-319q0 -147 182 -147t182 147v319h68zM360 672v-92h-92v92h92zM537 672v-92h-92v92h92z" />
    <glyph glyph-name="yacute" unicode="&#xfd;" horiz-adv-x="574" 
d="M320 257v-257h-68v257l-235 261h89l180 -199l180 199h90zM385 690l-99 -110h-78l68 110h109z" />
    <glyph glyph-name="ydieresis" unicode="&#xff;" horiz-adv-x="574" 
d="M320 257v-257h-68v257l-235 261h89l180 -199l180 199h90zM249 672v-92h-92v92h92zM426 672v-92h-92v92h92z" />
    <glyph glyph-name="dotlessi" unicode="&#x131;" horiz-adv-x="370" 
d="M219 518v-518h-68v518h68z" />
    <glyph glyph-name="Scaron" unicode="&#x160;" horiz-adv-x="833" 
d="M346 427l176 -3q120 -2 189 -63t69 -148q0 -43 -19 -81.5t-58.5 -72.5t-111.5 -54.5t-167 -20.5q-75 0 -136.5 14t-105 39t-68 44.5t-51.5 45.5q-1 2 -2 3l-2.5 2.5t-3 2.5t-2.5 2l47 49q5 -4 32 -28t47 -37.5t56 -32t83.5 -27.5t105.5 -9q125 0 206.5 41t81.5 120
q0 56 -51 98.5t-143 44.5l-172 3q-44 0 -83.5 9t-76 28.5t-58 58t-21.5 90.5q0 39 18 76.5t54.5 70.5t101 53.5t147.5 20.5q43 0 83.5 -6.5t67.5 -14.5t57 -23t43 -23t35 -23.5t23 -16.5l-42 -51q-84 52 -125 67q-63 23 -137 23q-127 0 -192.5 -49t-65.5 -105
q0 -115 171 -117zM495 811h-116l-75 107h76l57 -57l57 57h76z" />
    <glyph glyph-name="scaron" unicode="&#x161;" 
d="M275 305l144 -4q83 -3 143 -41t60 -111t-59.5 -119t-192.5 -46q-60 0 -112.5 9.5t-93 27.5t-58.5 28t-44 27l33 62q31 -22 55.5 -36.5t85 -32t129.5 -17.5q95 0 142 25.5t47 69.5q0 43 -35 63.5t-85 22.5l-155 4q-26 0 -54.5 7.5t-57.5 22.5t-47.5 44.5t-18.5 69.5
q0 68 60 110.5t164 42.5q159 0 267 -72l-31 -61q-112 65 -222 65q-89 0 -129.5 -23.5t-40.5 -60.5q0 -75 106 -77zM406 579h-116l-75 107h76l57 -57l57 57h76z" />
    <glyph glyph-name="Ydieresis" unicode="&#x178;" horiz-adv-x="778" 
d="M423 327v-327h-68v327l-337 423h88l283 -357l283 357h88zM356 904v-92h-92v92h92zM533 904v-92h-92v92h92z" />
    <glyph glyph-name="Zcaron" unicode="&#x17d;" 
d="M669 68v-68h-616l-37 72l554 610h-513v68h568l39 -71l-557 -611h562zM421 811h-116l-75 107h76l57 -57l57 57h76z" />
    <glyph glyph-name="zcaron" unicode="&#x17e;" horiz-adv-x="537" 
d="M517 68v-68h-458l-40 62l397 388h-371v68h425l39 -60l-397 -390h405zM337 579h-116l-75 107h76l57 -57l57 57h76z" />
    <glyph glyph-name="florin" unicode="&#x192;" horiz-adv-x="704" 
d="M375 404l-39 -286q-12 -87 -25.5 -135.5t-40 -79t-62.5 -40t-99 -9.5h-50l21 66q42 -3 43 -3q33 0 57 10.5t37.5 24.5t23.5 43t13.5 50.5t9.5 61.5q1 10 2 15l39 282h-137l11 60h134l10 65q9 63 54.5 101t122.5 38q17 0 48 -2.5t44 -2.5l-10 -57q-48 4 -71 4
q-55 0 -84.5 -21.5t-36.5 -77.5l-7 -47h161l-9 -60h-160z" />
    <glyph glyph-name="circumflex" unicode="&#x2c6;" horiz-adv-x="352" 
d="M234 687l75 -107h-76l-57 57l-57 -57h-76l75 107h116z" />
    <glyph glyph-name="caron" unicode="&#x2c7;" horiz-adv-x="352" 
d="M234 579h-116l-75 107h76l57 -57l57 57h76z" />
    <glyph glyph-name="ring" unicode="&#x2da;" horiz-adv-x="352" 
d="M290 694q0 -48 -34 -81t-80 -33t-80 33t-34 81t34 81t80 33t80 -33t34 -81zM176 635q23 0 41 17t18 42q0 24 -17.5 41.5t-41.5 17.5t-41.5 -17t-17.5 -42q0 -24 17 -41.5t42 -17.5z" />
    <glyph glyph-name="tilde" unicode="&#x2dc;" horiz-adv-x="352" 
d="M283 690h60q0 -44 -15 -70q-23 -35 -72 -35q-31 0 -85 16q-58 15 -72 15q-12 0 -21.5 -10t-9.5 -26h-59q0 106 86 106q31 0 83 -16q47 -17 68 -17q15 0 26 11.5t11 25.5z" />
    <glyph glyph-name="emdash" unicode="&#x2014;" horiz-adv-x="741" 
d="M711 286v-58h-681v58h681z" />
    <glyph glyph-name="quoteleft" unicode="&#x2018;" horiz-adv-x="389" 
d="M250 503q0 -10 -8 -10q-4 0 -17 7t-30.5 21.5t-34 33.5t-28 47.5t-11.5 59.5q0 46 26.5 75t57.5 29q26 0 44.5 -15t18.5 -40t-8.5 -37t-27.5 -24q-9 -5 -27 -6.5t-30.5 -4t-12.5 -12.5q0 -25 14 -48.5t30 -37t30 -24.5t14 -14z" />
    <glyph glyph-name="quotedblleft" unicode="&#x201c;" horiz-adv-x="667" 
d="M127 662q0 46 26.5 75t57.5 29q26 0 44.5 -15t18.5 -40t-8.5 -37t-27.5 -24q-9 -5 -27 -6.5t-30.5 -4t-12.5 -12.5q0 -25 14 -48.5t30 -37t30 -24.5t14 -14q0 -10 -8 -10q-4 0 -17 7t-30.5 21.5t-34 33.5t-28 47.5t-11.5 59.5zM392 662q0 46 26.5 75t57.5 29
q26 0 44.5 -15t18.5 -40t-8.5 -37t-27.5 -24q-9 -5 -27 -6.5t-30.5 -4t-12.5 -12.5q0 -25 13.5 -48.5t30.5 -37t30.5 -24.5t13.5 -14q0 -10 -8 -10q-4 0 -17 7t-30.5 21.5t-34 33.5t-28 47.5t-11.5 59.5z" />
    <glyph glyph-name="quotedblright" unicode="&#x201d;" horiz-adv-x="667" 
d="M539 662q0 -31 -11.5 -59.5t-28 -47.5t-34 -33.5t-30.5 -21.5t-17 -7q-8 0 -8 10q0 3 14 14t30 24.5t30 37t14 48.5q0 10 -12.5 12.5t-30.5 4t-27 6.5q-19 12 -27.5 24t-8.5 37t18.5 40t44.5 15q31 0 57.5 -29t26.5 -75zM274 662q0 -31 -11.5 -59.5t-28 -47.5t-34 -33.5
t-30.5 -21.5t-17 -7q-8 0 -8 10q0 3 13.5 14t30.5 24.5t30.5 37t13.5 48.5q0 10 -12.5 12.5t-30.5 4t-27 6.5q-19 12 -27.5 24t-8.5 37t18.5 40t44.5 15q31 0 57.5 -29t26.5 -75z" />
    <glyph glyph-name="bullet" unicode="&#x2022;" horiz-adv-x="500" 
 />
    <glyph glyph-name="guilsinglleft" unicode="&#x2039;" horiz-adv-x="315" 
d="M53 260l135 195h72l-115 -195l115 -193h-72z" />
    <glyph glyph-name="guilsinglright" unicode="&#x203a;" horiz-adv-x="315" 
d="M260 260l-135 -193h-72l115 193l-115 195h72z" />
    <glyph glyph-name="careof" unicode="&#x2105;" horiz-adv-x="870" 
d="M360 530l21 -44q-32 -20 -47.5 -28.5t-46 -16t-69.5 -7.5q-94 0 -148.5 48.5t-54.5 119.5q0 54 31.5 92.5t74 55t87.5 16.5q98 0 175 -63l-29 -42q-25 19 -36.5 26.5t-42 18t-66.5 10.5q-64 0 -101.5 -33.5t-37.5 -82.5q0 -47 39 -81.5t108 -34.5q35 0 64.5 8t41.5 15
t37 23zM750 766l-569 -801l-55 -1l570 802h54zM864 149q0 -74 -57.5 -119.5t-143.5 -45.5q-87 0 -143 47t-56 128q0 59 54.5 108t143.5 49q88 0 145 -49t57 -118zM664 34q67 0 106 32.5t39 80.5q0 52 -41 85.5t-106 33.5q-63 0 -103 -34.5t-40 -77.5q0 -53 40 -86.5
t105 -33.5z" />
    <glyph glyph-name="onethird" unicode="&#x2153;" horiz-adv-x="963" 
d="M210 652v-392h-50v392h50zM683 686l-514 -720h-55l514 720h55zM548 317l-24 45q90 44 160 44q79 0 123.5 -34.5t44.5 -80.5q0 -8 -1.5 -15.5t-3.5 -13t-5.5 -12t-6 -10t-8 -9l-7 -7t-7 -6.5t-6.5 -5q20 -14 30 -22t23 -29t13 -44q0 -50 -46 -88.5t-131 -38.5
q-135 0 -221 68l28 43q88 -61 188 -61q62 0 94.5 24t32.5 52q0 37 -39 53.5t-90 16.5h-45v50h53q50 0 75 16t25 40q0 25 -32 44t-76 19q-59 0 -141 -39z" />
    <glyph glyph-name="st" unicode="&#xfb06;" horiz-adv-x="1100" 
d="M164 476l101 -5q67 -4 113.5 -36.5t46.5 -89.5q0 -59 -65 -98.5t-169 -39.5q-75 0 -130.5 18t-115.5 55l27 47q92 -65 229 -65q72 0 120.5 23t48.5 60q0 66 -105 71l-115 5q-172 6 -172 110q0 55 61.5 93t162.5 38q26 0 49.5 -2.5t42.5 -7t33.5 -9t27.5 -11t20.5 -10.5
t16 -10t10.5 -7l-28 -45q-47 24 -83 35.5t-86 11.5q-82 0 -127 -22t-45 -54q0 -20 18 -32t44.5 -16.5t68.5 -6.5zM740 597v-380h-55v380h-185v55h425v-55h-185z" />
    <glyph glyph-name="Aswash" horiz-adv-x="833" 
d="M581 334l-158 340l-159 -340h317zM457 750l366 -750h-76l-131 266h-386l-131 -266q-19 -38 -33.5 -60.5t-39 -48.5t-59.5 -38.5t-81 -12.5q-11 0 -33 2t-28 2l3 65q8 0 24.5 -2t24.5 -2q35 0 60 8.5t45 32t31.5 43.5t33.5 66l342 695h68z" />
    <glyph glyph-name="Dapostrophe" horiz-adv-x="1185" 
d="M118 750h373q101 0 180 -57.5t117.5 -142t38.5 -175.5q0 -65 -23 -130.5t-64.5 -120.5t-106.5 -89.5t-142 -34.5h-373v750zM186 68h305q116 0 192 95.5t76 211.5q0 50 -18 102.5t-50.5 99t-85 76t-114.5 29.5h-305v-614zM1091 662q0 -31 -11.5 -59.5t-28 -47.5t-34 -33.5
t-30.5 -21.5t-17 -7q-8 0 -8 10q0 3 14 14t30 24.5t30 37t14 48.5q0 10 -12.5 12.5t-30.5 4t-27 6.5q-19 12 -27.5 24t-8.5 37t18.5 40t44.5 15q31 0 57.5 -29t26.5 -75z" />
    <glyph glyph-name="Oapostrophe" horiz-adv-x="1222" 
d="M892 375q0 -169 -114.5 -280t-287.5 -111t-287.5 111t-114.5 280t114.5 280t287.5 111q174 0 288 -111t114 -280zM490 52q147 0 240.5 95t93.5 228t-93.5 228t-240.5 95t-240.5 -95t-93.5 -228t93.5 -228t240.5 -95zM1133 662q0 -31 -11.5 -59.5t-28 -47.5t-34 -33.5
t-30.5 -21.5t-17 -7q-8 0 -8 10q0 3 14 14t30 24.5t30 37t14 48.5q0 10 -12.5 12.5t-30.5 4t-27 6.5q-19 12 -27.5 24t-8.5 37t18.5 40t44.5 15q31 0 57.5 -29t26.5 -75z" />
    <glyph glyph-name="ampersandalternate" horiz-adv-x="667" 
d="M600 375l-76 4q1 -3 9.5 -17.5t11 -19.5l9.5 -19t10 -21.5t8 -21t6.5 -24l3.5 -24.5t2 -27q0 -100 -66 -160.5t-190 -60.5q-120 0 -197 63t-77 169q0 91 48 139.5t120 65.5v2q-104 44 -104 131q0 80 69.5 124t153.5 44q86 0 162 -45l-42 -56q-49 38 -114 38t-109.5 -26
t-44.5 -78q0 -33 22 -57t59 -36.5t75 -17.5t81 -5h170v-64zM449 379h-111q-19 0 -31 -0.5t-36.5 -3.5t-41.5 -9t-38.5 -18t-35 -29t-22.5 -44t-9 -61q0 -80 58 -125t150 -45q84 0 133 42t49 120q0 23 -4.5 45.5t-14.5 44t-16 33t-18 31.5z" />
    <glyph glyph-name="apostrophec" horiz-adv-x="1019" 
d="M841 125l27 -62q-103 -79 -255 -79q-150 0 -236.5 78.5t-86.5 197.5q0 66 28 119.5t73.5 86.5t98.5 50.5t106 17.5q156 0 274 -101l-38 -57q-31 25 -55 40.5t-74 32.5t-104 17q-111 0 -176 -61.5t-65 -147.5t66.5 -145.5t187.5 -59.5q21 0 40.5 1.5t37 5t30.5 5.5
t27.5 8.5t22.5 9.5t21.5 11t17 10.5t17.5 11.5t15 10zM220 662q0 -31 -11.5 -59.5t-28 -47.5t-34 -33.5t-30.5 -21.5t-17 -7q-8 0 -8 10q0 3 13.5 14t30.5 24.5t30.5 37t13.5 48.5q0 10 -12.5 12.5t-30.5 4t-27 6.5q-19 12 -27.5 24t-8.5 37t18.5 40t44.5 15q31 0 57.5 -29
t26.5 -75z" />
    <glyph glyph-name="apostrophes" horiz-adv-x="981" 
d="M496 306l144 -3q84 -3 143.5 -41.5t59.5 -112.5q0 -73 -59.5 -119t-192.5 -46q-60 0 -112.5 9.5t-93 27.5t-58.5 28t-44 27l33 62q31 -22 55.5 -36.5t85 -32t129.5 -17.5q95 0 142 25.5t47 69.5q0 45 -34.5 65.5t-85.5 22.5l-155 3q-37 1 -74.5 12t-70.5 45.5t-33 85.5
q0 68 60 110.5t164 42.5q159 0 267 -72l-31 -61q-112 65 -222 65q-89 0 -129.5 -23.5t-40.5 -60.5q0 -74 106 -76zM219 662q0 -31 -11.5 -59.5t-28 -47.5t-34 -33.5t-30.5 -21.5t-17 -7q-8 0 -8 10q0 3 14 14t30 24.5t30 37t14 48.5q0 10 -12.5 12.5t-30.5 4t-27 6.5
q-19 12 -27.5 24t-8.5 37t18.5 40t44.5 15q31 0 57.5 -29t26.5 -75z" />
    <glyph glyph-name="baselinerulequarterpt" horiz-adv-x="1000" 
d="M1000 0v-25h-1000l1 25h999z" />
    <glyph glyph-name="bulletlowercase" horiz-adv-x="593" 
d="M370 257q0 -31 -22 -52.5t-52 -21.5t-52 21.5t-22 52.5t22 52.5t52 21.5t52 -21.5t22 -52.5z" />
    <glyph glyph-name="csuperior" horiz-adv-x="556" 
d="M490 411l29 -44q-34 -22 -53.5 -33t-72.5 -27t-110 -16q-121 0 -191 66.5t-70 166.5q0 92 72.5 159t188.5 67q128 0 232 -75l-29 -43l-16 9q-17 9 -26.5 14t-31.5 14t-39.5 14t-42 9t-47.5 4q-97 0 -152 -50.5t-55 -121.5q0 -84 63 -131.5t144 -47.5q86 0 207 66z" />
    <glyph glyph-name="fiveromannumeral" horiz-adv-x="704" 
d="M700 668l-315 -668h-69l-312 668h78l270 -590l270 590h78z" />
    <glyph glyph-name="flourishclose" horiz-adv-x="1296" 
d="M1234 179q0 -31 -8 -61t-25.5 -57t-49.5 -44t-74 -17q-44 0 -78.5 36t-34.5 77q0 35 17.5 57.5t52.5 22.5q19 0 35.5 -16t16.5 -38q0 -34 -18.5 -51t-40.5 -21q19 -39 52 -39q44 0 76 34t32 100q0 78 -62 135t-151 57q-20 0 -39 -3t-38.5 -10.5t-34.5 -13.5t-36 -20.5
t-32.5 -22t-34.5 -27.5t-31.5 -27t-34.5 -30.5t-32 -29.5q-85 -81 -159.5 -125.5t-163.5 -44.5q-68 0 -123 24t-87 62.5t-49 81t-17 84.5q0 69 38 124t118 55q45 0 79.5 -36.5t34.5 -77.5q0 -35 -18 -57.5t-52 -22.5q-19 0 -35.5 16.5t-16.5 38.5q0 34 18.5 50.5t39.5 20.5
q-18 40 -51 40q-44 0 -76 -34.5t-32 -100.5q0 -75 61.5 -131.5t151.5 -56.5q69 0 130.5 37.5t136.5 107.5q47 44 83.5 74.5t86.5 64.5t100.5 51.5t98.5 17.5q68 0 123 -24.5t87 -63.5t49 -82t17 -84z" />
    <glyph glyph-name="flourishopen" horiz-adv-x="1296" 
d="M1028 363q21 -4 39.5 -20.5t18.5 -50.5q0 -22 -16.5 -38.5t-35.5 -16.5q-34 0 -52 22.5t-18 57.5q0 41 34.5 77.5t79.5 36.5q80 0 118 -55t38 -124q0 -42 -17 -84.5t-49 -81t-87 -62.5t-123 -24q-89 0 -163.5 44.5t-159.5 125.5q-6 6 -32 29.5t-34.5 30.5t-31.5 27
t-34.5 27.5t-32.5 22t-36 20.5t-34.5 13.5t-38.5 10.5t-39 3q-89 0 -151 -57t-62 -135q0 -66 32 -100t76 -34q33 0 52 39q-22 4 -40.5 21t-18.5 51q0 22 16.5 38t35.5 16q35 0 52.5 -22.5t17.5 -57.5q0 -41 -34.5 -77t-78.5 -36q-42 0 -74 17t-49.5 44t-25.5 57t-8 61
q0 41 17 84t49 82t87 63.5t123 24.5q48 0 98.5 -17.5t100.5 -51.5t86.5 -64.5t83.5 -74.5q75 -70 136.5 -107.5t130.5 -37.5q90 0 151.5 56.5t61.5 131.5q0 66 -32 100.5t-76 34.5q-33 0 -51 -40z" />
    <glyph glyph-name="nd" horiz-adv-x="1259" 
d="M525 652v-435h-54l-325 351v-351h-55v435h54l325 -359v359h55zM689 652h222q114 0 185 -61t71 -154q0 -100 -66 -160t-190 -60h-222v435zM744 272h167q92 0 146.5 41t54.5 120q0 82 -56 123t-145 41h-167v-325z" />
    <glyph glyph-name="oneromannumeral" horiz-adv-x="352" 
d="M210 668v-668h-68v668h68z" />
    <glyph glyph-name="rd" horiz-adv-x="1259" 
d="M427 396l128 -179h-64l-128 175h-216v-175h-55v435h288q70 0 115 -32.5t45 -100.5q0 -95 -113 -123zM743 272h167q92 0 146.5 41t54.5 120q0 82 -56 123t-145 41h-167v-325zM147 447h233q106 0 106 74q0 76 -106 76h-233v-150zM688 652h222q114 0 185 -61t71 -154
q0 -100 -66 -160t-190 -60h-222v435z" />
    <glyph glyph-name="rperiodsuperior" horiz-adv-x="741" 
d="M414 493l128 -179h-65l-128 175h-216v-175h-55v436h288q70 0 115 -32.5t45 -100.5q0 -94 -112 -124zM133 544h233q105 0 105 74q0 77 -105 77h-233v-151zM750 370q0 -27 -18.5 -45.5t-45.5 -18.5t-45.5 18.5t-18.5 45.5q0 26 18.5 45t45.5 19q26 0 45 -19t19 -45z" />
    <glyph glyph-name="rsperiodsuperior" horiz-adv-x="1315" 
d="M414 493l128 -179h-65l-128 175h-216v-175h-55v436h288q70 0 115 -32.5t45 -100.5q0 -94 -112 -124zM133 544h233q105 0 105 74q0 77 -105 77h-233v-151zM852 578l101 -5q66 -3 113 -36t47 -91q0 -62 -64.5 -102t-169.5 -40q-150 0 -246 73l27 47q88 -65 229 -65
q73 0 121 24t48 64q0 34 -32 51.5t-73 19.5l-115 5q-39 2 -66.5 6.5t-53.5 16t-39.5 34.5t-13.5 56q0 51 62 87.5t163 36.5q26 0 49.5 -2.5t42.5 -7t33.5 -9t27.5 -11t20.5 -10.5t16 -10t10.5 -7l-28 -45q-77 47 -169 47q-81 0 -127 -21.5t-46 -50.5q0 -49 132 -55z
M1326 370q0 -27 -18.5 -45.5t-45.5 -18.5t-45.5 18.5t-18.5 45.5q0 26 18.5 45t45.5 19q26 0 45 -19t19 -45z" />
    <glyph glyph-name="speriodsuperior" horiz-adv-x="889" 
d="M282 578l101 -5q66 -3 113 -36t47 -91q0 -62 -64.5 -102t-169.5 -40q-150 0 -246 73l27 47q88 -65 229 -65q73 0 121 24t48 64q0 34 -32 51.5t-73 19.5l-115 5q-39 2 -66.5 6.5t-53.5 16t-39.5 34.5t-13.5 56q0 55 62 92.5t163 37.5q26 0 49.5 -2.5t42.5 -7t33.5 -9
t27.5 -11t20.5 -10.5t16 -10t10.5 -7l-28 -45q-77 47 -169 47q-83 0 -128 -22.5t-45 -55.5q0 -49 132 -55zM799 370q0 -27 -18.5 -45.5t-45.5 -18.5t-45.5 18.5t-18.5 45.5q0 26 18.5 45t45.5 19q26 0 45 -19t19 -45z" />
    <glyph glyph-name="tenromannumeral" horiz-adv-x="630" 
d="M376 357l253 -357h-83l-211 298l-211 -298h-82l251 357l-218 311h82l178 -252l177 252h84z" />
    <glyph glyph-name="th" horiz-adv-x="1100" 
d="M241 597v-380h-55v380h-185v55h425v-55h-185zM969 652v-435h-55v190h-327v-190h-55v435h55v-190h327v190h55z" />
  </font>
</defs>
</svg>
